<?xml version="1.0" standalone="no"?>
<!DOCTYPE svg PUBLIC "-//W3C//DTD SVG 1.1//EN" "http://www.w3.org/Graphics/SVG/1.1/DTD/svg11.dtd" >
<svg xmlns="http://www.w3.org/2000/svg" xmlns:xlink="http://www.w3.org/1999/xlink" version="1.1">
<metadata></metadata>
<defs>
<font id="montserrat_alternatesblack" horiz-adv-x="1433" >
<font-face units-per-em="2048" ascent="1638" descent="-410" />
<missing-glyph horiz-adv-x="614" />
<glyph unicode="&#xfb01;" horiz-adv-x="1652" d="M102 0v1065q0 219 131.5 347t368.5 128q78 0 151.5 -14.5t123.5 -40.5l-111 -322q-57 27 -104 27q-51 0 -81 -32t-30 -97v-2h244v-338h-230v-721h-463zM1040 1446q0 102 77 168.5t202 66.5q127 0 202.5 -63.5t75.5 -163.5q0 -106 -75.5 -175t-202.5 -69q-125 0 -202 66.5 t-77 169.5zM1087 0v1120h463v-1120h-463z" />
<glyph unicode="&#xfb02;" horiz-adv-x="1624" d="M0 721v338h156q18 223 177 352t443 129q303 0 463 -146.5t160 -396.5v-766q0 -53 26.5 -80.5t75.5 -27.5q23 0 46.5 6t37.5 14l19 -342q-98 -29 -199 -28q-221 0 -345 111.5t-124 322.5v803q0 90 -41 135t-119 45q-135 0 -155 -131h225v-338h-230v-721h-462v721h-154z " />
<glyph horiz-adv-x="0" />
<glyph unicode="&#xd;" horiz-adv-x="614" />
<glyph horiz-adv-x="0" />
<glyph horiz-adv-x="0" />
<glyph unicode=" "  horiz-adv-x="614" />
<glyph unicode="&#x09;" horiz-adv-x="614" />
<glyph unicode="&#xa0;" horiz-adv-x="614" />
<glyph unicode="!" horiz-adv-x="643" d="M45 1434h553l-92 -885h-369zM51 225q0 104 76 173t195 69t194.5 -68.5t75.5 -173.5q0 -102 -76 -173.5t-194 -71.5q-119 0 -195 71.5t-76 173.5z" />
<glyph unicode="&#x22;" horiz-adv-x="1001" d="M66 1434h389l-31 -615h-328zM547 1434h389l-31 -615h-328z" />
<glyph unicode="#" horiz-adv-x="1515" d="M27 281v307h286l31 258h-248v307h287l35 281h327l-34 -281h202l35 281h328l-35 -281h248v-307h-287l-31 -258h248v-307h-286l-35 -281h-328l35 281h-203l-35 -281h-327l34 281h-247zM641 588h203l30 258h-202z" />
<glyph unicode="$" horiz-adv-x="1345" d="M27 115l155 352q102 -59 229.5 -95t243.5 -36q100 0 143.5 19.5t43.5 58.5q0 45 -56.5 67.5t-185.5 48.5q-166 35 -276.5 75t-192.5 131t-82 247q0 180 130 309t374 164v223h289v-219q246 -23 415 -119l-145 -350q-211 106 -399 107q-186 0 -187 -90q0 -43 55.5 -64.5 t182.5 -46.5q164 -31 276.5 -71t195.5 -130t83 -245q0 -172 -124 -300t-353 -169v-228h-289v217q-154 8 -294 47t-232 97z" />
<glyph unicode="%" horiz-adv-x="1878" d="M33 1055q0 125 49 215t136 137t196 47t195.5 -47t136 -137t49.5 -215q0 -186 -106.5 -293t-274.5 -107t-274.5 106.5t-106.5 293.5zM276 0l979 1434h347l-979 -1434h-347zM324 1055q0 -94 25.5 -136t64.5 -42t64.5 42t25.5 136t-25.5 136t-64.5 42t-64.5 -42t-25.5 -136z M1083 379q0 125 49.5 215t136.5 137t195 47q109 0 196 -47t136 -137t49 -215q0 -186 -106.5 -292.5t-274.5 -106.5t-274.5 106.5t-106.5 292.5zM1374 379q0 -94 25.5 -136t64.5 -42t64.5 42t25.5 136t-25.5 136t-64.5 42t-64.5 -42t-25.5 -136z" />
<glyph unicode="&#x26;" horiz-adv-x="1591" d="M53 383q0 135 67.5 234.5t211.5 179.5q-123 131 -123 274q0 115 64.5 202t181 136t270.5 49q141 0 248.5 -44t167 -127t59.5 -191q0 -109 -60.5 -194t-187.5 -157l152 -129q37 82 55 187l371 -111q-41 -180 -135 -323l135 -115l-248 -281l-152 131q-213 -137 -479 -137 q-170 0 -306 54.5t-214 148.5t-78 213zM506 434q0 -53 48 -88t132 -35q82 0 162 35l-262 225q-80 -57 -80 -137zM629 1077q0 -27 15 -51.5t56 -62.5q113 61 113 122q0 33 -22.5 53.5t-63.5 20.5q-47 0 -72.5 -22.5t-25.5 -59.5z" />
<glyph unicode="'" horiz-adv-x="520" d="M66 1434h389l-31 -615h-328z" />
<glyph unicode="(" horiz-adv-x="780" d="M96 561q0 281 70 527.5t203 431.5h442q-137 -244 -199.5 -476.5t-62.5 -482.5t62.5 -482.5t199.5 -475.5h-442q-133 184 -203 431t-70 527z" />
<glyph unicode=")" horiz-adv-x="780" d="M-31 -397q137 244 199.5 476t62.5 482t-62.5 482.5t-199.5 476.5h443q133 -184 202.5 -431t69.5 -528t-69.5 -527.5t-202.5 -430.5h-443z" />
<glyph unicode="*" horiz-adv-x="968" d="M12 985l197 105l-197 104l140 229l200 -123l-6 220h275l-7 -220l201 123l141 -229l-196 -104l196 -105l-141 -229l-201 123l7 -220h-275l6 220l-200 -123z" />
<glyph unicode="+" horiz-adv-x="1269" d="M113 543v348h338v328h368v-328h338v-348h-338v-328h-368v328h-338z" />
<glyph unicode="," horiz-adv-x="622" d="M41 246q0 119 76 190.5t194 71.5q119 0 195 -71.5t76 -190.5q0 -53 -14.5 -106.5t-65.5 -162.5l-144 -305h-286l102 346q-63 31 -98 89.5t-35 138.5z" />
<glyph unicode="-" horiz-adv-x="798" d="M92 418v348h615v-348h-615z" />
<glyph unicode="." horiz-adv-x="622" d="M41 246q0 117 77 189.5t193 72.5q117 0 194 -73t77 -189q0 -117 -77 -191.5t-194 -74.5q-116 0 -193 74.5t-77 191.5z" />
<glyph unicode="/" horiz-adv-x="901" d="M-82 -205l676 1929h410l-676 -1929h-410z" />
<glyph unicode="0" horiz-adv-x="1417" d="M59 717q0 233 83 402t229.5 258t337.5 89q190 0 336.5 -89t229.5 -258t83 -402t-83 -402.5t-229.5 -258.5t-336.5 -89q-191 0 -337.5 89t-229.5 258t-83 403zM545 717q0 -362 164 -363q163 1 163 363t-163 362q-164 0 -164 -362z" />
<glyph unicode="1" horiz-adv-x="856" d="M10 1069v365h729v-1434h-483v1069h-246z" />
<glyph unicode="2" horiz-adv-x="1245" d="M-27 1135q82 154 240 242.5t381 88.5q170 0 301 -55t205 -157.5t74 -235.5q0 -119 -50.5 -222.5t-195.5 -234.5l-205 -186h483v-375h-1149v297l518 479q68 63 90.5 108.5t22.5 88.5q0 53 -36 82.5t-103 29.5q-66 0 -123 -34.5t-88 -98.5z" />
<glyph unicode="3" horiz-adv-x="1257" d="M-12 96l164 357q88 -51 189 -78t196 -27q84 0 135 29t51 82q0 98 -170 98h-191v297l211 215h-512v365h1069v-297l-266 -271q166 -41 255 -148.5t89 -258.5q0 -129 -70.5 -241t-218 -181.5t-366.5 -69.5q-152 0 -302.5 33t-262.5 96z" />
<glyph unicode="4" horiz-adv-x="1458" d="M47 246v307l608 881h496l-541 -813h195v219h455v-219h190v-375h-190v-246h-469v246h-744z" />
<glyph unicode="5" horiz-adv-x="1267" d="M10 96l164 357q90 -51 189.5 -78t193.5 -27q84 0 136 30t52 83q0 51 -47 76.5t-170 25.5h-415l71 871h953v-365h-555l-11 -141h74q301 0 443.5 -126t142.5 -331q0 -135 -70.5 -248.5t-218 -184.5t-367.5 -71q-152 0 -302 33t-263 96z" />
<glyph unicode="6" horiz-adv-x="1353" d="M59 672q0 246 99.5 426t278.5 274t417 94q129 0 246 -29.5t198 -82.5l-174 -338q-106 76 -260 76q-125 0 -205.5 -62.5t-105.5 -181.5q113 80 285 80q131 0 243.5 -57.5t180 -162t67.5 -239.5q0 -150 -76.5 -264.5t-210 -176t-294.5 -61.5q-207 0 -362 80t-241 237.5 t-86 387.5zM567 446q0 -68 41 -106.5t107 -38.5q65 0 106 39t41 106q0 68 -41 108t-106 40q-66 0 -107 -40t-41 -108z" />
<glyph unicode="7" horiz-adv-x="1320" d="M43 850v584h1227v-297l-477 -1137h-529l455 1059h-277v-209h-399z" />
<glyph unicode="8" horiz-adv-x="1388" d="M51 426q0 106 50.5 189t142.5 141q-141 113 -142 282q0 129 75 225.5t209 149.5t308 53t308.5 -53t209 -149.5t74.5 -225.5q0 -170 -141 -282q92 -58 142 -141t50 -189q0 -137 -80.5 -241.5t-227 -161t-335.5 -56.5q-188 0 -334.5 56.5t-227.5 161t-81 241.5zM537 442 q0 -68 44 -108.5t113 -40.5q70 0 114 41t44 108q0 68 -44 109t-114 41t-113.5 -41t-43.5 -109zM580 1018q0 -57 31.5 -90t82.5 -33t83 33t32 90t-32 90t-83 33t-82.5 -33t-31.5 -90z" />
<glyph unicode="9" horiz-adv-x="1353" d="M25 965q0 150 76.5 264t209.5 175.5t295 61.5q207 0 361.5 -79.5t240.5 -237.5t86 -387q0 -246 -99 -426t-278.5 -274.5t-416.5 -94.5q-129 0 -246 30t-199 83l174 338q106 -76 260 -76q125 0 206 62.5t106 181.5q-113 -80 -285 -80q-131 0 -243.5 57.5t-180 161.5 t-67.5 240zM492 987q0 -68 40.5 -107.5t106.5 -39.5t106.5 40t40.5 107q0 68 -40.5 107t-106.5 39t-106.5 -39t-40.5 -107z" />
<glyph unicode=":" horiz-adv-x="622" d="M41 246q0 117 77 189.5t193 72.5q117 0 194 -73t77 -189q0 -117 -77 -191.5t-194 -74.5q-116 0 -193 74.5t-77 191.5zM41 879q0 117 77 189.5t193 72.5q117 0 194 -73t77 -189q0 -117 -77 -191.5t-194 -74.5q-116 0 -193 74.5t-77 191.5z" />
<glyph unicode=";" horiz-adv-x="622" d="M41 246q0 119 76 190.5t194 71.5q119 0 195 -71.5t76 -190.5q0 -53 -14.5 -106.5t-65.5 -162.5l-144 -305h-286l102 346q-63 31 -98 89.5t-35 138.5zM41 879q0 117 77 189.5t193 72.5q117 0 194 -73t77 -189q0 -117 -77 -191.5t-194 -74.5q-116 0 -193 74.5t-77 191.5z " />
<glyph unicode="&#x3c;" horiz-adv-x="1269" d="M113 535v364l1044 379v-348l-620 -213l620 -213v-348z" />
<glyph unicode="=" horiz-adv-x="1269" d="M113 276v349h1044v-349h-1044zM113 809v348h1044v-348h-1044z" />
<glyph unicode="&#x3e;" horiz-adv-x="1269" d="M113 156v348l620 213l-620 213v348l1044 -379v-364z" />
<glyph unicode="?" horiz-adv-x="1241" d="M-27 1135q82 156 243 243.5t396 87.5q250 0 406 -102t156 -289q0 -86 -30 -150.5t-71 -108.5t-104 -97q-66 -57 -94.5 -92t-28.5 -78h-422q0 96 43 160.5t123 140.5q51 49 74.5 80t23.5 65q0 45 -39 71t-98 26q-66 0 -123 -38t-90 -102zM365 225q0 104 75.5 173t194.5 69 t194.5 -68.5t75.5 -173.5q0 -102 -75.5 -173.5t-194.5 -71.5t-194.5 71.5t-75.5 173.5z" />
<glyph unicode="@" horiz-adv-x="2123" d="M59 518q0 264 126 479t357.5 340t536.5 125q289 0 513.5 -117.5t348 -320.5t123.5 -449q0 -188 -64.5 -322t-174 -202.5t-242.5 -68.5q-117 0 -198.5 45t-124.5 133q-90 -178 -312 -178q-113 0 -212 62t-160.5 179t-61.5 269t60.5 267t160 177.5t213.5 62.5 q162 0 252 -100v82h393v-586q0 -113 80 -112q49 0 77 63.5t28 222.5q0 184 -87 327.5t-246 224.5t-366 81t-366.5 -89t-247.5 -245.5t-88 -349.5q0 -199 87 -355.5t244.5 -244.5t362.5 -88q215 0 414 90l86 -252q-92 -45 -228.5 -71.5t-271.5 -26.5q-301 0 -531.5 124 t-355.5 340t-125 484zM915 492q0 -90 40 -139.5t106 -49.5q65 0 106 49t41 140q0 90 -41 138t-106 48q-66 0 -106 -48t-40 -138z" />
<glyph unicode="A" horiz-adv-x="1622" d="M104 0v764q0 219 89.5 377.5t249 241.5t368.5 83t368.5 -83t249 -241.5t89.5 -377.5v-764h-484v289h-454v-289h-476zM580 653h454v152q0 133 -62.5 201.5t-164.5 68.5t-164.5 -68.5t-62.5 -201.5v-152z" />
<glyph unicode="B" horiz-adv-x="1583" d="M117 0v1434h766q287 0 433 -102.5t146 -272.5q0 -100 -50 -180t-148 -129q127 -48 196.5 -138t69.5 -217q0 -188 -155.5 -291.5t-450.5 -103.5h-807zM592 338h291q159 0 159 113q0 112 -156 112h-3h-291v-225zM592 883h225q158 0 158 106t-158 107h-225v-213z" />
<glyph unicode="C" horiz-adv-x="1523" d="M59 717q0 217 103.5 388t286 266t409.5 95q209 0 373 -73.5t270 -212.5l-305 -273q-133 168 -313 168q-152 0 -244 -97t-92 -261t92 -261.5t244 -97.5q180 0 313 168l305 -272q-106 -139 -270 -213t-373 -74q-227 0 -409.5 95.5t-286 266.5t-103.5 388z" />
<glyph unicode="D" horiz-adv-x="1691" d="M117 0v1434h706q240 0 423.5 -87t284.5 -249t101 -381t-101 -381t-284.5 -249t-423.5 -87h-706zM600 377h203q156 0 249 89t93 251t-93.5 251t-248.5 89h-203v-680z" />
<glyph unicode="E" horiz-adv-x="1423" d="M53 414q0 109 58.5 194.5t167.5 132.5q-82 45 -124 118t-42 161q0 121 78.5 222t241.5 162.5t401 61.5q145 0 285.5 -25.5t250.5 -68.5l-131 -352q-193 78 -387 78q-127 0 -189.5 -29t-62.5 -80q0 -43 31 -65.5t102 -22.5h420v-356h-453q-80 0 -119.5 -25.5t-39.5 -73.5 q0 -110 277 -110h5q109 0 231 29.5t216 78.5l141 -350q-115 -59 -276.5 -93t-329.5 -34q-242 0 -411 56.5t-255 158t-86 232.5z" />
<glyph unicode="F" horiz-adv-x="1280" d="M104 0v819q0 311 190.5 479t541.5 168q125 0 235.5 -23.5t190.5 -64.5l-140 -364q-57 31 -121.5 46t-123.5 15q-289 0 -289 -246v-6h508v-364h-508v-459h-484z" />
<glyph unicode="G" horiz-adv-x="1574" d="M59 698q0 225 103.5 400.5t288 271.5t419.5 96q211 0 378 -70.5t278 -205.5l-309 -272q-134 157 -320 157h-2q-162 0 -255 -98t-93 -275q0 -176 85 -264t220 -88q125 0 213 62v344h420v-756h-316v88q-143 -121 -385 -121q-203 0 -367.5 86t-261 251t-96.5 394z" />
<glyph unicode="H" horiz-adv-x="1646" d="M117 0v1434h483v-508h447v508h483v-1434h-483v528h-447v-528h-483z" />
<glyph unicode="I" horiz-adv-x="1056" d="M72 0v365h215v704h-215v365h913v-365h-215v-704h215v-365h-913z" />
<glyph unicode="J" horiz-adv-x="1175" d="M-49 -25l260 308q57 -72 112.5 -107t114.5 -35q76 0 116 45t40 133v750h-488v365h965v-1086q0 -293 -150.5 -439.5t-441.5 -146.5q-168 0 -304 54.5t-224 158.5z" />
<glyph unicode="K" horiz-adv-x="1566" d="M117 0v1434h475v-521l471 521h526l-573 -631l602 -803h-559l-359 475l-108 -121v-354h-475z" />
<glyph unicode="L" horiz-adv-x="1263" d="M117 0v1434h483v-1059h647v-375h-1130z" />
<glyph unicode="M" horiz-adv-x="2482" d="M117 0v1434h467v-144q133 176 395 176q274 0 407 -192q76 96 192 144t257 48q256 0 399.5 -153.5t143.5 -442.5v-870h-484v856q0 106 -55 162.5t-151 56.5q-98 0 -156.5 -60.5t-58.5 -174.5v-840h-484v856q0 106 -50 162.5t-140 56.5q-92 0 -145.5 -60.5t-53.5 -174.5 v-840h-483z" />
<glyph unicode="N" horiz-adv-x="1626" d="M117 0v1434h469v-154q145 186 401 186q254 0 394.5 -165.5t140.5 -471.5v-829h-484v815q0 131 -56 195.5t-157 64.5q-100 0 -162.5 -69.5t-62.5 -206.5v-799h-483z" />
<glyph unicode="O" horiz-adv-x="1736" d="M59 717q0 215 104.5 386t289 267t415.5 96t415.5 -96t289 -267t104.5 -386t-104.5 -386t-288.5 -267.5t-416 -96.5q-231 0 -415.5 96.5t-289 267.5t-104.5 386zM547 717q0 -109 43 -190t115.5 -125t162.5 -44t163 44t116 125t43 190t-43 189.5t-116 124.5t-163 44 t-162.5 -44t-115.5 -125t-43 -189z" />
<glyph unicode="P" horiz-adv-x="1521" d="M117 0v1434h690q199 0 346 -65.5t227 -188.5t80 -287t-80 -287t-227 -188.5t-346 -65.5h-207v-352h-483zM600 725h176q98 0 147.5 44t49.5 124t-49.5 124t-147.5 44h-176v-336z" />
<glyph unicode="Q" horiz-adv-x="1736" d="M59 717q0 215 104.5 386t289 267t415.5 96t415.5 -96t289 -267t104.5 -386q0 -174 -70.5 -321.5t-199.5 -251t-297 -146.5v-274h-483v274q-168 43 -297 146.5t-200 251t-71 321.5zM547 717q0 -109 43 -190t115.5 -125t162.5 -44t163 44t116 125t43 190t-43 189.5 t-116 124.5t-163 44t-162.5 -44t-115.5 -125t-43 -189z" />
<glyph unicode="R" horiz-adv-x="1525" d="M117 0v1434h690q199 0 346 -65.5t227 -188.5t80 -287q0 -154 -69.5 -268.5t-200.5 -182.5l301 -442h-516l-244 360h-131v-360h-483zM600 725h176q98 0 147.5 44t49.5 124t-49.5 124t-147.5 44h-176v-336z" />
<glyph unicode="S" horiz-adv-x="1345" d="M27 115l155 352q102 -59 229.5 -95t243.5 -36q100 0 143.5 19.5t43.5 58.5q0 45 -56.5 67.5t-185.5 48.5q-166 35 -276.5 75t-192.5 131t-82 247q0 135 76 245.5t226.5 174t365.5 63.5q147 0 289.5 -31.5t250.5 -93.5l-145 -350q-211 106 -399 107q-186 0 -187 -90 q0 -43 55.5 -64.5t182.5 -46.5q164 -31 276.5 -71t195.5 -130t83 -245q0 -135 -76 -245t-226.5 -174.5t-365.5 -64.5q-178 0 -347 40t-277 108z" />
<glyph unicode="T" horiz-adv-x="1400" d="M-37 1276q154 92 344.5 141t392.5 49q203 0 393.5 -49t344.5 -141l-160 -344q-166 92 -336 127v-1059h-483v1059q-170 -35 -336 -127z" />
<glyph unicode="U" horiz-adv-x="1617" d="M104 604v830h484v-816q0 -131 55 -195.5t154 -64.5q96 0 158.5 71t62.5 206v799h483v-1434h-469v154q-145 -186 -397 -187q-252 0 -391.5 166t-139.5 471z" />
<glyph unicode="V" horiz-adv-x="1609" d="M-39 1434h520l342 -838l351 838h475l-607 -1434h-475z" />
<glyph unicode="W" horiz-adv-x="2504" d="M104 604v830h484v-816q0 -131 51 -195.5t160 -64.5t160 64.5t51 195.5v816h483v-816q0 -131 52 -195.5t161 -64.5t160 64.5t51 195.5v816h483v-830q0 -305 -185 -471t-519 -166q-274 0 -445 135q-168 -135 -444 -135q-332 0 -517.5 166t-185.5 471z" />
<glyph unicode="X" horiz-adv-x="1560" d="M-16 0l518 723l-500 711h543l243 -361l238 361h520l-497 -693l528 -741h-553l-248 383l-241 -383h-551z" />
<glyph unicode="Y" horiz-adv-x="1603" d="M94 928v506h484v-471q0 -121 52 -180.5t161 -59.5q102 0 163.5 60.5t61.5 195.5v455h483v-961q0 -221 -90 -378.5t-256 -238.5t-391 -81q-195 0 -353.5 46t-275.5 128l176 342q100 -63 212 -97t218 -34q147 0 212 68.5t65 217.5v41q-136 -155 -364 -155h-3 q-270 0 -412.5 152.5t-142.5 443.5z" />
<glyph unicode="Z" horiz-adv-x="1427" d="M76 0v266l260 301h-158v328h440l152 176h-672v365h1264v-267l-244 -282h144v-328h-426l-168 -194h725v-365h-1317z" />
<glyph unicode="[" horiz-adv-x="839" d="M117 -397v1917h702v-349h-239v-1220h239v-348h-702z" />
<glyph unicode="\" horiz-adv-x="901" d="M-102 1724h409l676 -1929h-410z" />
<glyph unicode="]" horiz-adv-x="839" d="M20 -49h240v1220h-240v349h703v-1917h-703v348z" />
<glyph unicode="^" horiz-adv-x="1269" d="M74 285l379 864h364l379 -864h-348l-213 514l-213 -514h-348z" />
<glyph unicode="_" horiz-adv-x="1024" d="M0 0h1024v-246h-1024v246z" />
<glyph unicode="`" horiz-adv-x="1228" d="M119 1571h440l271 -328h-308z" />
<glyph unicode="a" d="M43 561q0 174 72.5 306t196.5 203t272 71q186 0 284 -97v76h463v-1120h-440v92q-99 -112 -303 -112h-4q-147 0 -271.5 70.5t-197 203.5t-72.5 307zM512 561q0 -104 51 -162.5t131 -58.5t131.5 58.5t51.5 162.5t-51.5 161.5t-131.5 57.5t-131 -57t-51 -162z" />
<glyph unicode="b" d="M102 0v1520h463v-476q98 96 285 97q147 0 271 -71t197 -203t73 -306t-73 -307t-197 -203.5t-271 -70.5q-207 0 -307 112v-92h-441zM557 561q0 -104 51 -162.5t131 -58.5t131.5 58.5t51.5 162.5t-51.5 161.5t-131.5 57.5t-131 -57t-51 -162z" />
<glyph unicode="c" horiz-adv-x="1259" d="M43 561q0 168 85 300t235.5 206t341.5 74q205 0 350 -88t200 -244l-358 -176q-66 147 -195 147q-82 0 -136 -57t-54 -162q0 -106 54.5 -163.5t135.5 -57.5q129 0 195 147l358 -176q-55 -156 -200.5 -243.5t-349.5 -87.5q-191 0 -341.5 73.5t-235.5 206.5t-85 301z" />
<glyph unicode="d" horiz-adv-x="1443" d="M53 561q0 174 73 306t196.5 203t271.5 71q186 0 285 -97v476h462v-1520h-440v92q-99 -112 -303 -112h-4q-147 0 -271 70.5t-197 203.5t-73 307zM522 561q0 -104 51.5 -162.5t131.5 -58.5q79 0 130.5 58.5t51.5 162.5t-51.5 161.5t-130.5 57.5q-80 0 -131.5 -57 t-51.5 -162z" />
<glyph unicode="e" horiz-adv-x="1337" d="M43 561q0 168 84 300t230.5 206t328.5 74q166 0 305 -66.5t221 -196.5t82 -311l-766 -147q51 -98 207 -98q74 0 124 18t110 63l241 -243q-168 -180 -489 -180q-203 0 -356.5 74.5t-237.5 207.5t-84 299zM498 639l358 70q-18 53 -62 84.5t-106 31.5q-80 0 -130 -47 t-60 -139z" />
<glyph unicode="f" horiz-adv-x="821" d="M102 0v1065q0 219 131.5 347t368.5 128q78 0 151.5 -14.5t123.5 -40.5l-111 -322q-57 27 -104 27q-51 0 -81 -32t-30 -97v-2h244v-338h-230v-721h-463z" />
<glyph unicode="g" horiz-adv-x="1456" d="M43 602q0 160 73.5 283t197.5 189.5t268 66.5q229 0 331 -148v127h441v-897q0 -319 -177.5 -480t-504.5 -161q-168 0 -313.5 36t-247.5 103l155 316q66 -49 166 -80t193 -31q139 0 202.5 59.5t63.5 174.5v20q-104 -119 -309 -119q-143 0 -267.5 67t-198 190.5 t-73.5 283.5zM512 602q0 -80 55.5 -130t137.5 -50q81 0 135.5 50t54.5 130t-54.5 129t-135.5 49q-84 0 -138.5 -49t-54.5 -129z" />
<glyph unicode="h" horiz-adv-x="1437" d="M102 0v1520h463v-490q129 111 316 111q206 0 332 -125t126 -377v-639h-462v559q0 193 -138 193q-78 0 -126 -54.5t-48 -171.5v-526h-463z" />
<glyph unicode="i" horiz-adv-x="667" d="M55 1446q0 102 77 168.5t202 66.5q127 0 202.5 -63.5t75.5 -163.5q0 -106 -75.5 -175t-202.5 -69q-125 0 -202 66.5t-77 169.5zM102 0v1120h463v-1120h-463z" />
<glyph unicode="j" horiz-adv-x="684" d="M-193 -362l111 321q49 -27 105 -27q43 0 69.5 32t26.5 97v1059h463v-1063q0 -219 -130 -347t-360 -128q-179 1 -285 56zM72 1446q0 102 77 168.5t202 66.5q127 0 202.5 -63.5t75.5 -163.5q0 -106 -75.5 -175t-202.5 -69q-125 0 -202 66.5t-77 169.5z" />
<glyph unicode="k" horiz-adv-x="1460" d="M102 0v1520h463v-725l322 325h547l-463 -485l499 -635h-559l-272 344l-74 -80v-264h-463z" />
<glyph unicode="l" horiz-adv-x="790" d="M102 414v1106h463v-1082q0 -53 26.5 -80.5t76.5 -27.5q23 0 46 6t38 14l18 -342q-95 -28 -192 -28h-7q-221 0 -345 111.5t-124 322.5z" />
<glyph unicode="m" horiz-adv-x="2129" d="M102 0v1120h441v-104q125 125 317 125q113 0 203 -42t147 -128q68 82 164 126t211 44q203 0 325 -125t122 -377v-639h-463v559q0 193 -125 193q-66 0 -106 -49.5t-40 -155.5v-547h-462v559q0 193 -125 193q-66 0 -106 -49.5t-40 -155.5v-547h-463z" />
<glyph unicode="n" horiz-adv-x="1437" d="M102 0v1120h441v-110q66 66 151.5 98.5t186.5 32.5q206 0 332 -125t126 -377v-639h-462v559q0 193 -138 193q-78 0 -126 -54.5t-48 -171.5v-526h-463z" />
<glyph unicode="o" horiz-adv-x="1388" d="M43 561q0 168 84 300t232.5 206t334.5 74q188 0 337 -74t232 -206t83 -300t-83 -300t-231.5 -206.5t-337.5 -74.5q-186 0 -334.5 74.5t-232.5 206.5t-84 300zM512 561q0 -104 51 -162.5t131 -58.5t131.5 58.5t51.5 162.5t-51.5 161.5t-131.5 57.5t-131 -57t-51 -162z" />
<glyph unicode="p" d="M102 -397v1517h441v-92q100 113 307 113q147 0 271 -71t197 -204t73 -307t-73 -306t-197 -202.5t-271 -70.5q-186 0 -285 96v-473h-463zM557 559q0 -104 51 -161.5t131 -57.5t131.5 57.5t51.5 161.5t-51.5 162.5t-131.5 58.5t-131 -58t-51 -163z" />
<glyph unicode="q" d="M43 559q0 174 72.5 307t196.5 204t272 71q207 0 307 -113v92h440v-1517h-463v473q-98 -96 -284 -96q-147 0 -271.5 70.5t-197 202.5t-72.5 306zM512 559q0 -104 51 -161.5t131 -57.5t131.5 57.5t51.5 161.5t-51.5 162.5t-131.5 58.5t-131 -58t-51 -163z" />
<glyph unicode="r" horiz-adv-x="933" d="M102 0v1120h441v-121q122 142 362 142v-410q-55 8 -102 8q-238 0 -238 -241v-498h-463z" />
<glyph unicode="s" horiz-adv-x="1157" d="M33 90l127 305q78 -47 184.5 -73.5t206.5 -26.5q80 0 111.5 13.5t31.5 39.5q0 27 -40 37t-130 21q-137 16 -233 41.5t-169 99.5t-73 211q0 109 65.5 194.5t195.5 137t313 51.5q127 0 248.5 -23.5t207.5 -68.5l-127 -306q-147 82 -323 82q-152 0 -152 -53q0 -27 41 -38 t129 -21q137 -16 232.5 -43t168 -100.5t72.5 -211.5q0 -104 -65.5 -190t-196.5 -137t-317 -51q-144 0 -283 30.5t-225 79.5z" />
<glyph unicode="t" horiz-adv-x="886" d="M98 434v938h463v-313h230v-338h-230v-283q0 -51 26.5 -79.5t69.5 -28.5q59 0 105 30l110 -321q-104 -59 -284 -59q-236 0 -363 113.5t-127 340.5z" />
<glyph unicode="u" horiz-adv-x="1429" d="M98 502v618h463v-538q0 -115 37 -164t109 -49q68 0 112.5 54t44.5 171v526h463v-1120h-440v106q-61 -63 -143 -94.5t-175 -31.5q-213 0 -342 130t-129 392z" />
<glyph unicode="v" horiz-adv-x="1318" d="M-31 1120h475l226 -600l241 600h439l-451 -1120h-479z" />
<glyph unicode="w" horiz-adv-x="2080" d="M98 502v618h463v-588q0 -184 123 -184q125 0 125 184v588h463v-588q0 -184 125 -184q63 0 93 43t30 141v588h462v-618q0 -250 -151.5 -386t-423.5 -136q-115 0 -207 29.5t-160 99.5q-70 -70 -159.5 -99.5t-206.5 -29.5q-274 0 -425 135t-151 387z" />
<glyph unicode="x" horiz-adv-x="1320" d="M-18 0l424 555l-412 565h522l160 -237l168 237h485l-411 -545l421 -575h-530l-154 240l-172 -240h-501z" />
<glyph unicode="y" horiz-adv-x="1429" d="M92 -279l156 316q66 -49 165 -80t189 -31q137 0 199.5 59.5t62.5 174.5v8q-121 -106 -295 -107q-213 0 -342 130.5t-129 392.5v536h463v-456q0 -115 37 -164t109 -49q68 0 112.5 54t44.5 171v444h463v-897q0 -319 -177 -480t-501 -161q-166 0 -310 36t-247 103z" />
<glyph unicode="z" horiz-adv-x="1187" d="M72 0v266l147 164h-90v272h334l72 80h-447v338h1030v-266l-137 -154h98v-272h-344l-80 -90h486v-338h-1069z" />
<glyph unicode="{" horiz-adv-x="897" d="M92 387v348h68q41 0 64.5 22.5t23.5 67.5v258q0 211 120.5 324t356.5 113h152v-349h-21q-72 0 -108.5 -36.5t-36.5 -104.5v-194q0 -121 -39 -184.5t-127 -90.5q88 -27 127 -90t39 -184v-195q0 -68 36.5 -104.5t108.5 -36.5h21v-348h-152q-236 0 -356.5 112.5 t-120.5 323.5v258q0 45 -23.5 67.5t-64.5 22.5h-68z" />
<glyph unicode="|" horiz-adv-x="655" d="M117 -397v1917h422v-1917h-422z" />
<glyph unicode="}" horiz-adv-x="897" d="M20 -49h21q72 0 108.5 37t36.5 104v195q0 121 39 184.5t127 89.5q-88 27 -127 90.5t-39 184.5v194q0 68 -36.5 104.5t-108.5 36.5h-21v349h152q236 0 356.5 -113t120.5 -324v-258q0 -45 23.5 -67.5t64.5 -22.5h68v-348h-68q-41 0 -64.5 -22.5t-23.5 -67.5v-258 q0 -211 -120.5 -323.5t-356.5 -112.5h-152v348z" />
<glyph unicode="~" horiz-adv-x="1269" d="M82 506q2 211 99.5 331.5t250.5 120.5q72 0 128 -25.5t120 -70.5q45 -31 69.5 -44t51.5 -13q45 0 73.5 33.5t30.5 95.5h283q-2 -211 -99.5 -332t-250.5 -121q-72 0 -128.5 25.5t-119.5 71.5q-45 31 -69.5 44t-51.5 13q-45 0 -73.5 -34t-30.5 -95h-283z" />
<glyph unicode="&#xa1;" horiz-adv-x="643" d="M45 -315l92 886h369l92 -886h-553zM51 895q0 102 76 174t195 72q118 0 194 -72t76 -174q0 -104 -76 -173t-194 -69q-119 0 -195 69t-76 173z" />
<glyph unicode="&#xa2;" horiz-adv-x="1259" d="M43 561q0 215 135 367.5t361 195.5v242h288v-233q158 -25 270.5 -109t157.5 -215l-358 -176q-66 147 -195 147q-82 0 -136 -57t-54 -162q0 -106 54.5 -163.5t135.5 -57.5q129 0 195 147l358 -176q-45 -131 -157.5 -215t-270.5 -108v-234h-288v242q-225 43 -360.5 195.5 t-135.5 369.5z" />
<glyph unicode="&#xa3;" horiz-adv-x="1421" d="M61 0v365h185v217h-185v270h185q10 295 200.5 454.5t530.5 159.5q125 0 235.5 -23.5t190.5 -64.5l-139 -364q-57 31 -122 46t-124 15q-274 0 -289 -223h430v-270h-430v-217h623v-365h-1291z" />
<glyph unicode="&#xa4;" d="M37 227l209 209q-51 106 -51 226q0 109 45 208l-203 203l256 256l199 -199q106 51 223 52q119 0 225 -52l199 199l256 -256l-203 -203q43 -102 43 -208q0 -118 -51 -224l211 -211l-256 -256l-215 215q-100 -45 -209 -45q-106 0 -209 43l-213 -213zM553 662q0 -68 47 -115 t115 -47q67 0 115.5 47t48.5 115t-48.5 115.5t-115.5 47.5q-68 0 -115 -48t-47 -115z" />
<glyph unicode="&#xa5;" horiz-adv-x="1576" d="M-55 1434h516l348 -527l350 527h473l-518 -799h244v-229h-328v-54h328v-229h-328v-123h-483v123h-328v229h328v54h-328v229h246z" />
<glyph unicode="&#xa6;" horiz-adv-x="655" d="M117 319h422v-716h-422v716zM117 803v717h422v-717h-422z" />
<glyph unicode="&#xa7;" horiz-adv-x="1124" d="M33 -115l127 305q78 -45 179 -72.5t183 -27.5q57 0 85 18.5t28 49.5q0 37 -45 55t-144 35q-123 23 -204.5 49.5t-142 94t-60.5 188.5q0 160 113 264q-74 80 -74 211q0 178 145.5 288.5t427.5 110.5q104 0 236.5 -23.5t210.5 -68.5l-127 -305q-147 82 -340 82 q-147 0 -148 -68q0 -31 38 -44t130 -32q123 -23 210 -54.5t151.5 -105t64.5 -204.5q1 -144 -112 -244q76 -80 75 -213q0 -115 -58 -205t-174 -142t-282 -52q-133 0 -270 30.5t-223 79.5zM438 618q0 -38 43 -54.5t146 -37.5q51 35 51 86q0 39 -43 55.5t-146 37.5 q-51 -35 -51 -87z" />
<glyph unicode="&#xa8;" horiz-adv-x="1228" d="M203 1407q0 80 52 131t132 51t132.5 -51t52.5 -131t-52.5 -130t-132.5 -50t-132 50t-52 130zM658 1407q0 80 52 131t132 51t132 -51t52 -131t-52 -130t-132 -50t-132 50t-52 130z" />
<glyph unicode="&#xa9;" horiz-adv-x="1564" d="M59 717q0 199 95.5 364.5t261.5 262t368 96.5q203 0 368 -94.5t259 -259t94 -365.5t-96 -368t-262 -263t-367 -96q-200 0 -365 96t-260.5 262t-95.5 365zM252 717q0 -152 68.5 -276t188.5 -195.5t271 -71.5q152 0 274 71.5t190.5 196.5t68.5 279t-67.5 276.5 t-187.5 192.5t-274 70t-274.5 -72t-189 -196t-68.5 -275zM371 717q0 117 56 209t157.5 144t228.5 52q135 0 233.5 -61.5t135.5 -169.5l-262 -133q-37 82 -109 82q-43 0 -73.5 -33t-30.5 -90t30.5 -90t73.5 -33q72 0 109 82l262 -133q-37 -109 -135.5 -170.5t-233.5 -61.5 q-127 0 -228.5 52.5t-157.5 144.5t-56 209z" />
<glyph unicode="&#xaa;" horiz-adv-x="864" d="M35 1057q0 201 330 200h108q-16 68 -133 68q-43 0 -91 -13.5t-83 -37.5l-98 190q63 37 151 56.5t174 19.5q398 0 398 -326v-354h-291v86q-49 -98 -201 -98q-127 0 -195.5 59.5t-68.5 149.5zM330 1069q0 -20 17.5 -33.5t45.5 -13.5q29 0 51.5 14.5t32.5 42.5v39h-63 q-84 0 -84 -49z" />
<glyph unicode="&#xab;" horiz-adv-x="1316" d="M51 561l283 410h409l-272 -410l272 -409h-409zM594 561l283 410h409l-272 -410l272 -409h-409z" />
<glyph unicode="&#xac;" horiz-adv-x="1269" d="M113 543v348h1044v-696h-369v348h-675z" />
<glyph unicode="&#xad;" horiz-adv-x="798" d="M92 418v348h615v-348h-615z" />
<glyph unicode="&#xae;" horiz-adv-x="1564" d="M59 717q0 199 95.5 364.5t261.5 262t368 96.5q203 0 368 -94.5t259 -259t94 -365.5t-96 -368t-262 -263t-367 -96t-365.5 96t-260 262t-95.5 365zM252 717q0 -152 68.5 -276t188.5 -195.5t271 -71.5q113 0 211.5 41t169.5 117h-250l-127 196h-47v-196h-295v770h367 q170 0 266 -78t96 -209q0 -162 -122 -233l141 -220q123 152 123 359q0 154 -67.5 276.5t-187.5 192.5t-274 70t-274.5 -72t-189 -196t-68.5 -275zM737 731h54q41 0 63.5 22.5t22.5 61.5t-23 61.5t-63 22.5h-54v-168z" />
<glyph unicode="&#xaf;" horiz-adv-x="1228" d="M185 1286v242h860v-242h-860z" />
<glyph unicode="&#xb0;" horiz-adv-x="851" d="M41 1085q0 102 52 187.5t140.5 134.5t192.5 49t192.5 -49t140.5 -134t52 -188q0 -102 -52 -187t-140.5 -134t-192.5 -49t-192.5 49t-140.5 134t-52 187zM270 1085q0 -68 44 -112.5t112 -44.5t112 45t44 112q0 68 -44 113t-112 45t-112 -45t-44 -113z" />
<glyph unicode="&#xb1;" horiz-adv-x="1269" d="M113 0v348h1044v-348h-1044zM113 793v329h338v312h368v-312h338v-329h-338v-312h-368v312h-338z" />
<glyph unicode="&#xb2;" horiz-adv-x="880" d="M14 1338q47 92 149.5 147t254.5 55q170 0 273.5 -73.5t103.5 -196.5q0 -66 -35 -126t-129 -144l-113 -97h303v-233h-749v186l325 279q74 61 74 110q0 27 -20.5 42.5t-61.5 15.5q-94 0 -137 -78z" />
<glyph unicode="&#xb3;" horiz-adv-x="880" d="M18 736l107 223q63 -35 139 -53.5t144 -18.5q119 0 118 57q0 49 -98 50h-147v186l129 113h-344v227h733v-186l-170 -146q106 -24 163.5 -88.5t57.5 -155.5q0 -78 -46 -144.5t-144.5 -108t-243.5 -41.5q-111 0 -219.5 23.5t-178.5 62.5z" />
<glyph unicode="&#xb4;" horiz-adv-x="1228" d="M400 1243l270 328h440l-403 -328h-307z" />
<glyph unicode="&#xb5;" d="M102 -397v1517h463v-538q0 -115 37 -164t109 -49q68 0 112.5 54t44.5 171v526h463v-1120h-399v104q-43 -63 -104.5 -93.5t-131.5 -30.5t-131 28v-405h-463z" />
<glyph unicode="&#xb6;" horiz-adv-x="1495" d="M16 1100q0 127 65.5 222t186.5 146.5t281 51.5h829v-1725h-372v1407h-164v-1407h-373v887q-127 4 -230.5 56.5t-163 145.5t-59.5 216z" />
<glyph unicode="&#xb7;" horiz-adv-x="704" d="M82 594q0 121 74.5 192.5t195.5 71.5t196 -71.5t75 -192.5t-75 -194.5t-196 -73.5t-195.5 73.5t-74.5 194.5z" />
<glyph unicode="&#xb8;" horiz-adv-x="1228" d="M330 -449l57 170q61 -25 123 -24q98 0 98 49q0 41 -84 41h-83l55 233h237l-28 -126q90 -12 132 -58.5t42 -105.5q0 -102 -95.5 -162t-252.5 -60q-54 0 -111 12.5t-90 30.5z" />
<glyph unicode="&#xb9;" horiz-adv-x="880" d="M131 670v227h180v396h-159v227h487v-623h152v-227h-660z" />
<glyph unicode="&#xba;" horiz-adv-x="897" d="M33 1194q0 100 53 179t148.5 123t214.5 44q121 0 215 -44t147 -123t53 -179t-53 -179t-147.5 -123t-214.5 -44q-119 0 -214.5 44t-148.5 123t-53 179zM342 1194q0 -57 29.5 -89t77.5 -32q47 0 76.5 32t29.5 89q0 59 -29.5 90t-76.5 31t-77 -31t-30 -90z" />
<glyph unicode="&#xbb;" horiz-adv-x="1316" d="M31 152l272 409l-272 410h409l283 -410l-283 -409h-409zM574 152l272 409l-272 410h409l283 -410l-283 -409h-409z" />
<glyph unicode="&#xbc;" horiz-adv-x="2164" d="M131 584v227h180v395h-159v228h487v-623h152v-227h-660zM420 0l979 1434h346l-979 -1434h-346zM1282 139v193l358 518h342l-331 -477h116v112h275v-112h102v-234h-102v-139h-312v139h-448z" />
<glyph unicode="&#xbd;" horiz-adv-x="2164" d="M131 584v227h180v395h-159v228h487v-623h152v-227h-660zM420 0l979 1434h346l-979 -1434h-346zM1298 668q47 92 149.5 147t254.5 55q170 0 273.5 -73.5t103.5 -196.5q0 -66 -35 -126t-129 -144l-113 -97h303v-233h-749v186l325 279q74 61 74 110q0 27 -20.5 42.5 t-61.5 15.5q-94 0 -137 -78z" />
<glyph unicode="&#xbe;" horiz-adv-x="2164" d="M18 649l107 223q63 -35 139 -53t144 -18q119 0 118 57q0 49 -98 49h-147v187l129 112h-344v228h733v-187l-170 -145q106 -25 163.5 -89.5t57.5 -154.5q0 -78 -46 -144.5t-144.5 -108.5t-243.5 -42q-111 0 -219.5 23.5t-178.5 62.5zM420 0l979 1434h346l-979 -1434h-346z M1282 139v193l358 518h342l-331 -477h116v112h275v-112h102v-234h-102v-139h-312v139h-448z" />
<glyph unicode="&#xbf;" horiz-adv-x="1241" d="M68 45q0 86 29.5 150.5t70.5 108.5t104 97q66 57 94.5 92t28.5 78h422q0 -96 -43 -160.5t-123 -140.5q-51 -49 -74.5 -79.5t-23.5 -65.5q0 -45 39 -70.5t98 -25.5q66 0 123 37.5t90 101.5l365 -182q-82 -156 -243 -244t-396 -88q-250 0 -405.5 102.5t-155.5 288.5z M336 895q0 102 75.5 174t194.5 72t195 -72t76 -174q0 -104 -76 -173t-195 -69t-194.5 69t-75.5 173z" />
<glyph unicode="&#xc0;" horiz-adv-x="1622" d="M104 0v764q0 219 89.5 377.5t249 241.5t368.5 83t368.5 -83t249 -241.5t89.5 -377.5v-764h-484v289h-454v-289h-476zM315 1878h440l271 -328h-308zM580 653h454v152q0 133 -62.5 201.5t-164.5 68.5t-164.5 -68.5t-62.5 -201.5v-152z" />
<glyph unicode="&#xc1;" horiz-adv-x="1622" d="M104 0v764q0 219 89.5 377.5t249 241.5t368.5 83t368.5 -83t249 -241.5t89.5 -377.5v-764h-484v289h-454v-289h-476zM580 653h454v152q0 133 -62.5 201.5t-164.5 68.5t-164.5 -68.5t-62.5 -201.5v-152zM596 1550l270 328h440l-403 -328h-307z" />
<glyph unicode="&#xc2;" horiz-adv-x="1622" d="M104 0v764q0 219 89.5 377.5t249 241.5t368.5 83t368.5 -83t249 -241.5t89.5 -377.5v-764h-484v289h-454v-289h-476zM352 1550l262 328h393l262 -328h-286l-172 158l-172 -158h-287zM580 653h454v152q0 133 -62.5 201.5t-164.5 68.5t-164.5 -68.5t-62.5 -201.5v-152z" />
<glyph unicode="&#xc3;" horiz-adv-x="1622" d="M104 0v764q0 219 89.5 377.5t249 241.5t368.5 83t368.5 -83t249 -241.5t89.5 -377.5v-764h-484v289h-454v-289h-476zM362 1550q4 164 79 259.5t204 95.5q59 0 106 -20.5t99 -55.5q35 -25 56 -35t42 -10q39 0 63.5 25.5t28.5 68.5h219q-4 -158 -78.5 -253t-204.5 -95 q-59 0 -106 20.5t-98 55.5q-35 23 -56.5 34t-42.5 11q-39 0 -63.5 -27t-28.5 -74h-219zM580 653h454v152q0 133 -62.5 201.5t-164.5 68.5t-164.5 -68.5t-62.5 -201.5v-152z" />
<glyph unicode="&#xc4;" horiz-adv-x="1622" d="M104 0v764q0 219 89.5 377.5t249 241.5t368.5 83t368.5 -83t249 -241.5t89.5 -377.5v-764h-484v289h-454v-289h-476zM399 1714q0 80 52 131t132 51t132.5 -51t52.5 -131t-52.5 -130t-132.5 -50t-132 50t-52 130zM580 653h454v152q0 133 -62.5 201.5t-164.5 68.5 t-164.5 -68.5t-62.5 -201.5v-152zM854 1714q0 80 52 131t132 51t132 -51t52 -131t-52 -130t-132 -50t-132 50t-52 130z" />
<glyph unicode="&#xc5;" horiz-adv-x="1622" d="M104 0v764q0 219 89.5 377.5t249 241.5t368.5 83t368.5 -83t249 -241.5t89.5 -377.5v-764h-484v289h-454v-289h-476zM524 1796q0 76 38 138t103.5 99t145.5 37t145.5 -37t103 -99t37.5 -138t-37.5 -138.5t-103.5 -99.5t-145 -37q-80 0 -145.5 37t-103.5 99.5t-38 138.5z M580 653h454v152q0 133 -62.5 201.5t-164.5 68.5t-164.5 -68.5t-62.5 -201.5v-152zM700 1796q0 -49 31.5 -80t79.5 -31q47 0 78.5 31t31.5 80t-31.5 79.5t-78.5 30.5t-79 -30.5t-32 -79.5z" />
<glyph unicode="&#xc6;" horiz-adv-x="2250" d="M94 0v770q0 322 179.5 493t517.5 171h1363v-365h-690v-168h607v-348h-607v-188h717v-365h-1192v303h-411v-303h-484zM578 668h411v374h-153q-137 0 -197.5 -66.5t-60.5 -217.5v-90z" />
<glyph unicode="&#xc7;" horiz-adv-x="1523" d="M59 717q0 217 103.5 388t286 266t409.5 95q209 0 373 -73.5t270 -212.5l-305 -273q-133 168 -313 168q-152 0 -244 -97t-92 -261t92 -261.5t244 -97.5q180 0 313 168l305 -272q-106 -139 -270 -213t-373 -74q-227 0 -409.5 95.5t-286 266.5t-103.5 388zM518 -449l57 170 q61 -25 123 -24q98 0 98 49q0 41 -84 41h-83l55 233h237l-28 -126q90 -12 132 -58.5t42 -105.5q0 -102 -95.5 -162t-252.5 -60q-54 0 -111 12.5t-90 30.5z" />
<glyph unicode="&#xc8;" horiz-adv-x="1423" d="M53 414q0 109 58.5 194.5t167.5 132.5q-82 45 -124 118t-42 161q0 121 78.5 222t241.5 162.5t401 61.5q145 0 285.5 -25.5t250.5 -68.5l-131 -352q-193 78 -387 78q-127 0 -189.5 -29t-62.5 -80q0 -43 31 -65.5t102 -22.5h420v-356h-453q-80 0 -119.5 -25.5t-39.5 -73.5 q0 -111 282 -110q109 0 231 29.5t216 78.5l141 -350q-115 -59 -276.5 -93t-329.5 -34q-242 0 -411 56.5t-255 158t-86 232.5zM272 1878h440l271 -328h-308z" />
<glyph unicode="&#xc9;" horiz-adv-x="1423" d="M53 414q0 109 58.5 194.5t167.5 132.5q-82 45 -124 118t-42 161q0 121 78.5 222t241.5 162.5t401 61.5q145 0 285.5 -25.5t250.5 -68.5l-131 -352q-193 78 -387 78q-127 0 -189.5 -29t-62.5 -80q0 -43 31 -65.5t102 -22.5h420v-356h-453q-80 0 -119.5 -25.5t-39.5 -73.5 q0 -111 282 -110q109 0 231 29.5t216 78.5l141 -350q-115 -59 -276.5 -93t-329.5 -34q-242 0 -411 56.5t-255 158t-86 232.5zM553 1550l270 328h440l-403 -328h-307z" />
<glyph unicode="&#xca;" horiz-adv-x="1423" d="M53 414q0 109 58.5 194.5t167.5 132.5q-82 45 -124 118t-42 161q0 121 78.5 222t241.5 162.5t401 61.5q145 0 285.5 -25.5t250.5 -68.5l-131 -352q-193 78 -387 78q-127 0 -189.5 -29t-62.5 -80q0 -43 31 -65.5t102 -22.5h420v-356h-453q-80 0 -119.5 -25.5t-39.5 -73.5 q0 -111 282 -110q109 0 231 29.5t216 78.5l141 -350q-115 -59 -276.5 -93t-329.5 -34q-242 0 -411 56.5t-255 158t-86 232.5zM309 1550l262 328h393l262 -328h-286l-172 158l-172 -158h-287z" />
<glyph unicode="&#xcb;" horiz-adv-x="1423" d="M53 414q0 109 58.5 194.5t167.5 132.5q-82 45 -124 118t-42 161q0 121 78.5 222t241.5 162.5t401 61.5q145 0 285.5 -25.5t250.5 -68.5l-131 -352q-193 78 -387 78q-127 0 -189.5 -29t-62.5 -80q0 -43 31 -65.5t102 -22.5h420v-356h-453q-80 0 -119.5 -25.5t-39.5 -73.5 q0 -111 282 -110q109 0 231 29.5t216 78.5l141 -350q-115 -59 -276.5 -93t-329.5 -34q-242 0 -411 56.5t-255 158t-86 232.5zM356 1714q0 80 52 131t132 51t132.5 -51t52.5 -131t-52.5 -130t-132.5 -50t-132 50t-52 130zM811 1714q0 80 52 131t132 51t132 -51t52 -131 t-52 -130t-132 -50t-132 50t-52 130z" />
<glyph unicode="&#xcc;" horiz-adv-x="1056" d="M33 1878h440l271 -328h-308zM72 0v365h215v704h-215v365h913v-365h-215v-704h215v-365h-913z" />
<glyph unicode="&#xcd;" horiz-adv-x="1056" d="M72 0v365h215v704h-215v365h913v-365h-215v-704h215v-365h-913zM314 1550l270 328h440l-403 -328h-307z" />
<glyph unicode="&#xce;" horiz-adv-x="1056" d="M70 1550l262 328h393l262 -328h-286l-172 158l-172 -158h-287zM72 0v365h215v704h-215v365h913v-365h-215v-704h215v-365h-913z" />
<glyph unicode="&#xcf;" horiz-adv-x="1056" d="M72 0v365h215v704h-215v365h913v-365h-215v-704h215v-365h-913zM117 1714q0 80 52 131t132 51t132.5 -51t52.5 -131t-52.5 -130t-132.5 -50t-132 50t-52 130zM572 1714q0 80 52 131t132 51t132 -51t52 -131t-52 -130t-132 -50t-132 50t-52 130z" />
<glyph unicode="&#xd0;" horiz-adv-x="1732" d="M-19 588v278h963v-278h-963zM158 0v1434h706q240 0 423.5 -87t284.5 -249t101 -381t-101 -381t-284.5 -249t-423.5 -87h-706zM641 377h203q156 0 249 89t93 251t-93.5 251t-248.5 89h-203v-680z" />
<glyph unicode="&#xd1;" horiz-adv-x="1626" d="M117 0v1434h469v-154q145 186 401 186q254 0 394.5 -165.5t140.5 -471.5v-829h-484v815q0 131 -56 195.5t-157 64.5q-100 0 -162.5 -69.5t-62.5 -206.5v-799h-483zM371 1550q4 164 79 259.5t204 95.5q59 0 106 -20.5t99 -55.5q35 -25 56 -35t42 -10q39 0 63.5 25.5 t28.5 68.5h219q-4 -158 -78.5 -253t-204.5 -95q-59 0 -106 20.5t-98 55.5q-35 23 -56.5 34t-42.5 11q-39 0 -63.5 -27t-28.5 -74h-219z" />
<glyph unicode="&#xd2;" horiz-adv-x="1736" d="M59 717q0 215 104.5 386t289 267t415.5 96t415.5 -96t289 -267t104.5 -386t-104.5 -386t-288.5 -267.5t-416 -96.5q-231 0 -415.5 96.5t-289 267.5t-104.5 386zM373 1878h440l271 -328h-308zM547 717q0 -109 43 -190t115.5 -125t162.5 -44t163 44t116 125t43 190 t-43 189.5t-116 124.5t-163 44t-162.5 -44t-115.5 -125t-43 -189z" />
<glyph unicode="&#xd3;" horiz-adv-x="1736" d="M59 717q0 215 104.5 386t289 267t415.5 96t415.5 -96t289 -267t104.5 -386t-104.5 -386t-288.5 -267.5t-416 -96.5q-231 0 -415.5 96.5t-289 267.5t-104.5 386zM547 717q0 -109 43 -190t115.5 -125t162.5 -44t163 44t116 125t43 190t-43 189.5t-116 124.5t-163 44 t-162.5 -44t-115.5 -125t-43 -189zM654 1550l270 328h440l-403 -328h-307z" />
<glyph unicode="&#xd4;" horiz-adv-x="1736" d="M59 717q0 215 104.5 386t289 267t415.5 96t415.5 -96t289 -267t104.5 -386t-104.5 -386t-288.5 -267.5t-416 -96.5q-231 0 -415.5 96.5t-289 267.5t-104.5 386zM410 1550l262 328h393l262 -328h-286l-172 158l-172 -158h-287zM547 717q0 -109 43 -190t115.5 -125 t162.5 -44t163 44t116 125t43 190t-43 189.5t-116 124.5t-163 44t-162.5 -44t-115.5 -125t-43 -189z" />
<glyph unicode="&#xd5;" horiz-adv-x="1736" d="M59 717q0 215 104.5 386t289 267t415.5 96t415.5 -96t289 -267t104.5 -386t-104.5 -386t-288.5 -267.5t-416 -96.5q-231 0 -415.5 96.5t-289 267.5t-104.5 386zM420 1550q4 164 79 259.5t204 95.5q59 0 106 -20.5t99 -55.5q35 -25 56 -35t42 -10q39 0 63.5 25.5 t28.5 68.5h219q-4 -158 -78.5 -253t-204.5 -95q-59 0 -106 20.5t-98 55.5q-35 23 -56.5 34t-42.5 11q-39 0 -63.5 -27t-28.5 -74h-219zM547 717q0 -109 43 -190t115.5 -125t162.5 -44t163 44t116 125t43 190t-43 189.5t-116 124.5t-163 44t-162.5 -44t-115.5 -125t-43 -189z " />
<glyph unicode="&#xd6;" horiz-adv-x="1736" d="M59 717q0 215 104.5 386t289 267t415.5 96t415.5 -96t289 -267t104.5 -386t-104.5 -386t-288.5 -267.5t-416 -96.5q-231 0 -415.5 96.5t-289 267.5t-104.5 386zM457 1714q0 80 52 131t132 51t132.5 -51t52.5 -131t-52.5 -130t-132.5 -50t-132 50t-52 130zM547 717 q0 -109 43 -190t115.5 -125t162.5 -44t163 44t116 125t43 190t-43 189.5t-116 124.5t-163 44t-162.5 -44t-115.5 -125t-43 -189zM912 1714q0 80 52 131t132 51t132 -51t52 -131t-52 -130t-132 -50t-132 50t-52 130z" />
<glyph unicode="&#xd7;" horiz-adv-x="1269" d="M143 471l246 246l-246 246l246 245l246 -245l246 245l245 -245l-245 -246l245 -246l-245 -246l-246 246l-246 -246z" />
<glyph unicode="&#xd8;" horiz-adv-x="1736" d="M59 717q0 215 104.5 386t289 267t415.5 96t415.5 -96t289 -267t104.5 -386t-104.5 -386t-288.5 -267.5t-416 -96.5q-231 0 -415.5 96.5t-289 267.5t-104.5 386zM125 -143l1221 1720h266l-1220 -1720h-267zM547 717q0 -109 43 -190t115.5 -125t162.5 -44t163 44t116 125 t43 190t-43 189.5t-116 124.5t-163 44t-162.5 -44t-115.5 -125t-43 -189z" />
<glyph unicode="&#xd9;" horiz-adv-x="1617" d="M104 604v830h484v-816q0 -131 55 -195.5t154 -64.5q96 0 158.5 71t62.5 206v799h483v-1434h-469v154q-145 -186 -397 -187q-252 0 -391.5 166t-139.5 471zM303 1878h440l271 -328h-308z" />
<glyph unicode="&#xda;" horiz-adv-x="1617" d="M104 604v830h484v-816q0 -131 55 -195.5t154 -64.5q96 0 158.5 71t62.5 206v799h483v-1434h-469v154q-145 -186 -397 -187q-252 0 -391.5 166t-139.5 471zM584 1550l270 328h440l-403 -328h-307z" />
<glyph unicode="&#xdb;" horiz-adv-x="1617" d="M104 604v830h484v-816q0 -131 55 -195.5t154 -64.5q96 0 158.5 71t62.5 206v799h483v-1434h-469v154q-145 -186 -397 -187q-252 0 -391.5 166t-139.5 471zM340 1550l262 328h393l262 -328h-286l-172 158l-172 -158h-287z" />
<glyph unicode="&#xdc;" horiz-adv-x="1617" d="M104 604v830h484v-816q0 -131 55 -195.5t154 -64.5q96 0 158.5 71t62.5 206v799h483v-1434h-469v154q-145 -186 -397 -187q-252 0 -391.5 166t-139.5 471zM387 1714q0 80 52 131t132 51t132.5 -51t52.5 -131t-52.5 -130t-132.5 -50t-132 50t-52 130zM842 1714 q0 80 52 131t132 51t132 -51t52 -131t-52 -130t-132 -50t-132 50t-52 130z" />
<glyph unicode="&#xdd;" horiz-adv-x="1603" d="M94 928v506h484v-471q0 -121 52 -180.5t161 -59.5q102 0 163.5 60.5t61.5 195.5v455h483v-961q0 -221 -90 -378.5t-256 -238.5t-391 -81q-195 0 -353.5 46t-275.5 128l176 342q100 -63 212 -97t218 -34q147 0 212 68.5t65 217.5v41q-137 -156 -367 -155 q-270 0 -412.5 152.5t-142.5 443.5zM582 1550l270 328h440l-403 -328h-307z" />
<glyph unicode="&#xde;" horiz-adv-x="1521" d="M117 0v1436h483v-140h207q199 0 346 -65.5t227 -188t80 -286.5t-80 -287t-227 -188.5t-346 -65.5h-207v-215h-483zM600 588h176q98 0 147.5 44t49.5 124t-49.5 124t-147.5 44h-176v-336z" />
<glyph unicode="&#xdf;" horiz-adv-x="1462" d="M102 0v967q0 182 82 311t220.5 195.5t306.5 66.5q180 0 311 -59.5t199.5 -160.5t68.5 -228q0 -164 -131 -281q127 -49 193.5 -144.5t66.5 -230.5q0 -215 -145.5 -335.5t-392.5 -120.5q-68 0 -138.5 9t-111.5 23l45 353q63 -25 135 -25q61 0 100 28.5t39 80.5 q0 106 -155 106h-107v348q72 4 115 42t43 102q0 61 -37 99t-96 38q-68 0 -108 -40t-40 -114v-1030h-463z" />
<glyph unicode="&#xe0;" d="M43 561q0 174 72.5 306t196.5 203t272 71q186 0 284 -97v76h463v-1120h-440v92q-100 -113 -307 -112q-147 0 -271.5 70.5t-197 203.5t-72.5 307zM254 1571h440l271 -328h-308zM512 561q0 -104 51 -162.5t131 -58.5t131.5 58.5t51.5 162.5t-51.5 161.5t-131.5 57.5 t-131 -57t-51 -162z" />
<glyph unicode="&#xe1;" d="M43 561q0 174 72.5 306t196.5 203t272 71q186 0 284 -97v76h463v-1120h-440v92q-100 -113 -307 -112q-147 0 -271.5 70.5t-197 203.5t-72.5 307zM512 561q0 -104 51 -162.5t131 -58.5t131.5 58.5t51.5 162.5t-51.5 161.5t-131.5 57.5t-131 -57t-51 -162zM535 1243 l270 328h440l-403 -328h-307z" />
<glyph unicode="&#xe2;" d="M43 561q0 174 72.5 306t196.5 203t272 71q186 0 284 -97v76h463v-1120h-440v92q-100 -113 -307 -112q-147 0 -271.5 70.5t-197 203.5t-72.5 307zM291 1243l262 328h393l262 -328h-286l-172 158l-172 -158h-287zM512 561q0 -104 51 -162.5t131 -58.5t131.5 58.5 t51.5 162.5t-51.5 161.5t-131.5 57.5t-131 -57t-51 -162z" />
<glyph unicode="&#xe3;" d="M43 561q0 174 72.5 306t196.5 203t272 71q186 0 284 -97v76h463v-1120h-440v92q-100 -113 -307 -112q-147 0 -271.5 70.5t-197 203.5t-72.5 307zM301 1243q4 164 79 259t204 95q59 0 106 -20.5t99 -54.5q35 -25 56 -35t42 -10q39 0 63.5 25.5t28.5 68.5h219 q-4 -158 -78.5 -253t-204.5 -95q-59 0 -106 20.5t-98 54.5q-35 23 -56.5 34t-42.5 11q-39 0 -63.5 -26.5t-28.5 -73.5h-219zM512 561q0 -104 51 -162.5t131 -58.5t131.5 58.5t51.5 162.5t-51.5 161.5t-131.5 57.5t-131 -57t-51 -162z" />
<glyph unicode="&#xe4;" d="M43 561q0 174 72.5 306t196.5 203t272 71q186 0 284 -97v76h463v-1120h-440v92q-100 -113 -307 -112q-147 0 -271.5 70.5t-197 203.5t-72.5 307zM338 1407q0 80 52 131t132 51t132.5 -51t52.5 -131t-52.5 -130t-132.5 -50t-132 50t-52 130zM512 561q0 -104 51 -162.5 t131 -58.5t131.5 58.5t51.5 162.5t-51.5 161.5t-131.5 57.5t-131 -57t-51 -162zM793 1407q0 80 52 131t132 51t132 -51t52 -131t-52 -130t-132 -50t-132 50t-52 130z" />
<glyph unicode="&#xe5;" d="M43 561q0 174 72.5 306t196.5 203t272 71q186 0 284 -97v76h463v-1120h-440v92q-100 -113 -307 -112q-147 0 -271.5 70.5t-197 203.5t-72.5 307zM463 1483q0 76 38 138t103.5 99t145.5 37t145.5 -37t103 -99t37.5 -138t-37.5 -138.5t-103.5 -99.5t-145 -37 q-80 0 -145.5 37t-103.5 99.5t-38 138.5zM512 561q0 -104 51 -162.5t131 -58.5t131.5 58.5t51.5 162.5t-51.5 161.5t-131.5 57.5t-131 -57t-51 -162zM639 1483q0 -49 31.5 -80t79.5 -31q47 0 78.5 31t31.5 80t-31.5 79.5t-78.5 30.5t-79 -30.5t-32 -79.5z" />
<glyph unicode="&#xe6;" horiz-adv-x="2054" d="M47 344q0 156 128 242t384 86h184q-27 125 -206 125q-80 0 -157 -23.5t-132 -64.5l-148 305q96 59 230.5 93t271.5 34q262 0 406 -123q82 59 184 91t213 32q162 0 301 -67.5t222 -196.5t83 -310l-770 -147q59 -98 213 -98q64 0 116 19t111 62l244 -243q-84 -88 -207 -134 t-276 -46q-303 0 -477 167q-74 -92 -175.5 -129.5t-236.5 -37.5q-236 0 -371 99t-135 265zM492 354q0 -45 29.5 -70.5t84.5 -25.5q68 0 105 40t37 112v39h-115q-141 0 -141 -95zM1210 639l361 72q-20 51 -66.5 82.5t-105.5 31.5q-76 0 -128 -50t-61 -136z" />
<glyph unicode="&#xe7;" horiz-adv-x="1259" d="M43 561q0 168 85 300t235.5 206t341.5 74q205 0 350 -88t200 -244l-358 -176q-66 147 -195 147q-82 0 -136 -57t-54 -162q0 -106 54.5 -163.5t135.5 -57.5q129 0 195 147l358 -176q-55 -156 -200.5 -243.5t-349.5 -87.5q-191 0 -341.5 73.5t-235.5 206.5t-85 301z M363 -449l57 170q61 -25 123 -24q98 0 98 49q0 41 -84 41h-83l55 233h237l-28 -126q90 -12 132 -58.5t42 -105.5q0 -102 -95.5 -162t-252.5 -60q-54 0 -111 12.5t-90 30.5z" />
<glyph unicode="&#xe8;" horiz-adv-x="1337" d="M43 561q0 168 84 300t230.5 206t328.5 74q166 0 305 -66.5t221 -196.5t82 -311l-766 -147q51 -98 207 -98q74 0 124 18t110 63l241 -243q-168 -180 -489 -180q-203 0 -356.5 74.5t-237.5 207.5t-84 299zM182 1571h440l271 -328h-308zM498 639l358 70q-18 53 -62 84.5 t-106 31.5q-80 0 -130 -47t-60 -139z" />
<glyph unicode="&#xe9;" horiz-adv-x="1337" d="M43 561q0 168 84 300t230.5 206t328.5 74q166 0 305 -66.5t221 -196.5t82 -311l-766 -147q51 -98 207 -98q74 0 124 18t110 63l241 -243q-168 -180 -489 -180q-203 0 -356.5 74.5t-237.5 207.5t-84 299zM463 1243l270 328h440l-403 -328h-307zM498 639l358 70 q-18 53 -62 84.5t-106 31.5q-80 0 -130 -47t-60 -139z" />
<glyph unicode="&#xea;" horiz-adv-x="1337" d="M43 561q0 168 84 300t230.5 206t328.5 74q166 0 305 -66.5t221 -196.5t82 -311l-766 -147q51 -98 207 -98q74 0 124 18t110 63l241 -243q-168 -180 -489 -180q-203 0 -356.5 74.5t-237.5 207.5t-84 299zM219 1243l262 328h393l262 -328h-286l-172 158l-172 -158h-287z M498 639l358 70q-18 53 -62 84.5t-106 31.5q-80 0 -130 -47t-60 -139z" />
<glyph unicode="&#xeb;" horiz-adv-x="1337" d="M43 561q0 168 84 300t230.5 206t328.5 74q166 0 305 -66.5t221 -196.5t82 -311l-766 -147q51 -98 207 -98q74 0 124 18t110 63l241 -243q-168 -180 -489 -180q-203 0 -356.5 74.5t-237.5 207.5t-84 299zM266 1407q0 80 52 131t132 51t132.5 -51t52.5 -131t-52.5 -130 t-132.5 -50t-132 50t-52 130zM498 639l358 70q-18 53 -62 84.5t-106 31.5q-80 0 -130 -47t-60 -139zM721 1407q0 80 52 131t132 51t132 -51t52 -131t-52 -130t-132 -50t-132 50t-52 130z" />
<glyph unicode="&#xec;" horiz-adv-x="667" d="M-162 1571h440l271 -328h-308zM102 0v1120h463v-1120h-463z" />
<glyph unicode="&#xed;" horiz-adv-x="667" d="M102 0v1120h463v-1120h-463zM119 1243l270 328h440l-403 -328h-307z" />
<glyph unicode="&#xee;" horiz-adv-x="667" d="M-74 1243l215 328h385l215 -328h-287l-120 137l-121 -137h-287zM102 0v1120h463v-1120h-463z" />
<glyph unicode="&#xef;" horiz-adv-x="667" d="M-27 1407q0 80 48 131t122 51q72 0 120 -51t48 -131t-48 -130t-120 -50q-74 0 -122 50t-48 130zM102 0v1120h463v-1120h-463zM356 1407q0 80 48 131t122 51q72 0 120 -51t48 -131t-48 -130t-120 -50q-74 0 -122 50t-48 130z" />
<glyph unicode="&#xf0;" horiz-adv-x="1384" d="M43 469q0 135 67.5 239.5t183.5 162t255 57.5q188 0 301 -88q-6 162 -80 254l-475 -172l-72 186l299 109q-49 4 -76 4q-135 0 -247 -37l-43 334q164 35 319 34q338 0 555 -151l191 69l71 -186l-104 -39q153 -211 153 -553q0 -225 -88 -389t-246.5 -250t-371.5 -86 q-166 0 -301 62.5t-213 177.5t-78 262zM514 446q0 -66 45 -105.5t113 -39.5q67 0 112 40t45 105q0 66 -45 107t-112 41q-68 0 -113 -41t-45 -107z" />
<glyph unicode="&#xf1;" horiz-adv-x="1437" d="M102 0v1120h441v-110q66 66 151.5 98.5t186.5 32.5q206 0 332 -125t126 -377v-639h-462v559q0 193 -138 193q-78 0 -126 -54.5t-48 -171.5v-526h-463zM278 1243q4 164 79 259t204 95q59 0 106 -20.5t99 -54.5q35 -25 56 -35t42 -10q39 0 63.5 25.5t28.5 68.5h219 q-4 -158 -78.5 -253t-204.5 -95q-59 0 -106 20.5t-98 54.5q-35 23 -56.5 34t-42.5 11q-39 0 -63.5 -26.5t-28.5 -73.5h-219z" />
<glyph unicode="&#xf2;" horiz-adv-x="1388" d="M43 561q0 168 84 300t232.5 206t334.5 74q188 0 337 -74t232 -206t83 -300t-83 -300t-231.5 -206.5t-337.5 -74.5q-186 0 -334.5 74.5t-232.5 206.5t-84 300zM193 1571h440l271 -328h-308zM512 561q0 -104 51 -162.5t131 -58.5t131.5 58.5t51.5 162.5t-51.5 161.5 t-131.5 57.5t-131 -57t-51 -162z" />
<glyph unicode="&#xf3;" horiz-adv-x="1388" d="M43 561q0 168 84 300t232.5 206t334.5 74q188 0 337 -74t232 -206t83 -300t-83 -300t-231.5 -206.5t-337.5 -74.5q-186 0 -334.5 74.5t-232.5 206.5t-84 300zM474 1243l270 328h440l-403 -328h-307zM512 561q0 -104 51 -162.5t131 -58.5t131.5 58.5t51.5 162.5 t-51.5 161.5t-131.5 57.5t-131 -57t-51 -162z" />
<glyph unicode="&#xf4;" horiz-adv-x="1388" d="M43 561q0 168 84 300t232.5 206t334.5 74q188 0 337 -74t232 -206t83 -300t-83 -300t-231.5 -206.5t-337.5 -74.5q-186 0 -334.5 74.5t-232.5 206.5t-84 300zM230 1243l262 328h393l262 -328h-286l-172 158l-172 -158h-287zM512 561q0 -104 51 -162.5t131 -58.5 t131.5 58.5t51.5 162.5t-51.5 161.5t-131.5 57.5t-131 -57t-51 -162z" />
<glyph unicode="&#xf5;" horiz-adv-x="1388" d="M43 561q0 168 84 300t232.5 206t334.5 74q188 0 337 -74t232 -206t83 -300t-83 -300t-231.5 -206.5t-337.5 -74.5q-186 0 -334.5 74.5t-232.5 206.5t-84 300zM240 1243q4 164 79 259t204 95q59 0 106 -20.5t99 -54.5q35 -25 56 -35t42 -10q39 0 63.5 25.5t28.5 68.5h219 q-4 -158 -78.5 -253t-204.5 -95q-59 0 -106 20.5t-98 54.5q-35 23 -56.5 34t-42.5 11q-39 0 -63.5 -26.5t-28.5 -73.5h-219zM512 561q0 -104 51 -162.5t131 -58.5t131.5 58.5t51.5 162.5t-51.5 161.5t-131.5 57.5t-131 -57t-51 -162z" />
<glyph unicode="&#xf6;" horiz-adv-x="1388" d="M43 561q0 168 84 300t232.5 206t334.5 74q188 0 337 -74t232 -206t83 -300t-83 -300t-231.5 -206.5t-337.5 -74.5q-186 0 -334.5 74.5t-232.5 206.5t-84 300zM277 1407q0 80 52 131t132 51t132.5 -51t52.5 -131t-52.5 -130t-132.5 -50t-132 50t-52 130zM512 561 q0 -104 51 -162.5t131 -58.5t131.5 58.5t51.5 162.5t-51.5 161.5t-131.5 57.5t-131 -57t-51 -162zM732 1407q0 80 52 131t132 51t132 -51t52 -131t-52 -130t-132 -50t-132 50t-52 130z" />
<glyph unicode="&#xf7;" horiz-adv-x="1269" d="M113 543v348h1044v-348h-1044zM406 266q0 98 65.5 159.5t163.5 61.5t163.5 -61t65.5 -160q0 -98 -65.5 -161.5t-163.5 -63.5t-163.5 63.5t-65.5 161.5zM406 1171q0 98 65.5 160t163.5 62t163.5 -61.5t65.5 -160.5q0 -98 -65.5 -161.5t-163.5 -63.5t-163.5 63.5 t-65.5 161.5z" />
<glyph unicode="&#xf8;" horiz-adv-x="1388" d="M43 561q0 168 84 300t232.5 206t334.5 74q188 0 337 -74t232 -206t83 -300t-83 -300t-231.5 -206.5t-337.5 -74.5q-186 0 -334.5 74.5t-232.5 206.5t-84 300zM140 -143l903 1392h194l-903 -1392h-194zM512 561q0 -104 51 -162.5t131 -58.5t131.5 58.5t51.5 162.5 t-51.5 161.5t-131.5 57.5t-131 -57t-51 -162z" />
<glyph unicode="&#xf9;" horiz-adv-x="1429" d="M98 502v618h463v-538q0 -115 37 -164t109 -49q68 0 112.5 54t44.5 171v526h463v-1120h-440v106q-61 -63 -143 -94.5t-175 -31.5q-213 0 -342 130t-129 392zM217 1571h440l271 -328h-308z" />
<glyph unicode="&#xfa;" horiz-adv-x="1429" d="M98 502v618h463v-538q0 -115 37 -164t109 -49q68 0 112.5 54t44.5 171v526h463v-1120h-440v106q-61 -63 -143 -94.5t-175 -31.5q-213 0 -342 130t-129 392zM498 1243l270 328h440l-403 -328h-307z" />
<glyph unicode="&#xfb;" horiz-adv-x="1429" d="M98 502v618h463v-538q0 -115 37 -164t109 -49q68 0 112.5 54t44.5 171v526h463v-1120h-440v106q-61 -63 -143 -94.5t-175 -31.5q-213 0 -342 130t-129 392zM254 1243l262 328h393l262 -328h-286l-172 158l-172 -158h-287z" />
<glyph unicode="&#xfc;" horiz-adv-x="1429" d="M98 502v618h463v-538q0 -115 37 -164t109 -49q68 0 112.5 54t44.5 171v526h463v-1120h-440v106q-61 -63 -143 -94.5t-175 -31.5q-213 0 -342 130t-129 392zM301 1407q0 80 52 131t132 51t132.5 -51t52.5 -131t-52.5 -130t-132.5 -50t-132 50t-52 130zM756 1407 q0 80 52 131t132 51t132 -51t52 -131t-52 -130t-132 -50t-132 50t-52 130z" />
<glyph unicode="&#xfd;" horiz-adv-x="1429" d="M92 -279l156 316q66 -49 165 -80t189 -31q137 0 199.5 59.5t62.5 174.5v8q-121 -106 -295 -107q-213 0 -342 130.5t-129 392.5v536h463v-456q0 -115 37 -164t109 -49q68 0 112.5 54t44.5 171v444h463v-897q0 -319 -177 -480t-501 -161q-166 0 -310 36t-247 103zM498 1243 l270 328h440l-403 -328h-307z" />
<glyph unicode="&#xfe;" d="M102 -397v1917h463v-469q98 90 285 90q147 0 271 -71t197 -204t73 -307t-73 -306t-197 -202.5t-271 -70.5q-186 0 -285 96v-473h-463zM557 559q0 -104 51 -161.5t131 -57.5t131.5 57.5t51.5 161.5t-51.5 162.5t-131.5 58.5t-131 -58t-51 -163z" />
<glyph unicode="&#xff;" horiz-adv-x="1429" d="M92 -279l156 316q66 -49 165 -80t189 -31q137 0 199.5 59.5t62.5 174.5v8q-121 -106 -295 -107q-213 0 -342 130.5t-129 392.5v536h463v-456q0 -115 37 -164t109 -49q68 0 112.5 54t44.5 171v444h463v-897q0 -319 -177 -480t-501 -161q-166 0 -310 36t-247 103zM301 1407 q0 80 52 131t132 51t132.5 -51t52.5 -131t-52.5 -130t-132.5 -50t-132 50t-52 130zM756 1407q0 80 52 131t132 51t132 -51t52 -131t-52 -130t-132 -50t-132 50t-52 130z" />
<glyph unicode="&#x152;" horiz-adv-x="2353" d="M59 717q0 219 101.5 381t285 249t422.5 87h1389v-365h-690v-168h606v-348h-606v-188h717v-365h-1416q-240 0 -423 87t-284.5 249t-101.5 381zM547 717q0 -162 93 -251t249 -89h203v680h-203q-156 0 -249 -89t-93 -251z" />
<glyph unicode="&#x153;" horiz-adv-x="2195" d="M43 561q0 168 83 300t229.5 206t330.5 74q129 0 235.5 -38t182.5 -108q82 70 189.5 108t236.5 38q170 0 312.5 -66.5t226 -196.5t83.5 -311l-786 -147q59 -98 213 -98q76 0 128 19t112 62l247 -243q-170 -180 -501 -180q-141 0 -257 38.5t-200 112.5q-162 -152 -422 -151 q-184 0 -330.5 74.5t-229.5 206.5t-83 300zM512 561q0 -104 51 -162.5t131 -58.5t131.5 58.5t51.5 162.5t-51.5 161.5t-131.5 57.5t-131 -57t-51 -162zM1333 639l369 70q-16 53 -61.5 84.5t-108.5 31.5q-84 0 -137.5 -49t-61.5 -137z" />
<glyph unicode="&#x178;" horiz-adv-x="1603" d="M94 928v506h484v-471q0 -121 52 -180.5t161 -59.5q102 0 163.5 60.5t61.5 195.5v455h483v-961q0 -221 -90 -378.5t-256 -238.5t-391 -81q-195 0 -353.5 46t-275.5 128l176 342q100 -63 212 -97t218 -34q147 0 212 68.5t65 217.5v41q-137 -156 -367 -155 q-270 0 -412.5 152.5t-142.5 443.5zM385 1714q0 80 52 131t132 51t132.5 -51t52.5 -131t-52.5 -130t-132.5 -50t-132 50t-52 130zM840 1714q0 80 52 131t132 51t132 -51t52 -131t-52 -130t-132 -50t-132 50t-52 130z" />
<glyph unicode="&#x2c6;" horiz-adv-x="1228" d="M156 1243l262 328h393l262 -328h-286l-172 158l-172 -158h-287z" />
<glyph unicode="&#x2dc;" horiz-adv-x="1228" d="M166 1243q4 164 79 259t204 95q59 0 106 -20.5t99 -54.5q35 -25 56 -35t42 -10q39 0 63.5 25.5t28.5 68.5h219q-4 -158 -78.5 -253t-204.5 -95q-59 0 -106 20.5t-98 54.5q-35 23 -56.5 34t-42.5 11q-39 0 -63.5 -26.5t-28.5 -73.5h-219z" />
<glyph unicode="&#x2000;" horiz-adv-x="1035" />
<glyph unicode="&#x2001;" horiz-adv-x="2070" />
<glyph unicode="&#x2002;" horiz-adv-x="1035" />
<glyph unicode="&#x2003;" horiz-adv-x="2070" />
<glyph unicode="&#x2004;" horiz-adv-x="690" />
<glyph unicode="&#x2005;" horiz-adv-x="517" />
<glyph unicode="&#x2006;" horiz-adv-x="345" />
<glyph unicode="&#x2007;" horiz-adv-x="345" />
<glyph unicode="&#x2008;" horiz-adv-x="258" />
<glyph unicode="&#x2009;" horiz-adv-x="414" />
<glyph unicode="&#x200a;" horiz-adv-x="115" />
<glyph unicode="&#x2010;" horiz-adv-x="798" d="M92 418v348h615v-348h-615z" />
<glyph unicode="&#x2011;" horiz-adv-x="798" d="M92 418v348h615v-348h-615z" />
<glyph unicode="&#x2012;" horiz-adv-x="798" d="M92 418v348h615v-348h-615z" />
<glyph unicode="&#x2013;" horiz-adv-x="1024" d="M0 459v266h1024v-266h-1024z" />
<glyph unicode="&#x2014;" horiz-adv-x="2048" d="M0 459v266h2048v-266h-2048z" />
<glyph unicode="&#x2018;" horiz-adv-x="622" d="M41 946q0 53 14.5 106.5t65.5 161.5l143 306h287l-102 -346q63 -31 98 -89.5t35 -138.5q0 -119 -76 -190.5t-195 -71.5t-194.5 71.5t-75.5 190.5z" />
<glyph unicode="&#x2019;" horiz-adv-x="622" d="M41 1278q0 119 76 190.5t194 71.5q119 0 195 -71.5t76 -190.5q0 -53 -14.5 -106.5t-65.5 -161.5l-144 -305h-286l102 346q-63 31 -98 89t-35 138z" />
<glyph unicode="&#x201a;" horiz-adv-x="622" d="M41 246q0 119 76 190.5t194 71.5q119 0 195 -71.5t76 -190.5q0 -53 -14.5 -106.5t-65.5 -162.5l-144 -305h-286l102 346q-63 31 -98 89.5t-35 138.5z" />
<glyph unicode="&#x201c;" horiz-adv-x="1216" d="M41 946q0 53 14.5 106.5t65.5 161.5l143 306h287l-102 -346q63 -31 98 -89.5t35 -138.5q0 -119 -76 -190.5t-195 -71.5t-194.5 71.5t-75.5 190.5zM635 946q0 53 14.5 106.5t65.5 161.5l143 306h287l-102 -346q63 -31 98 -89.5t35 -138.5q0 -119 -76 -190.5t-195 -71.5 t-194.5 71.5t-75.5 190.5z" />
<glyph unicode="&#x201d;" horiz-adv-x="1216" d="M41 1278q0 119 76 190.5t194 71.5q119 0 195 -71.5t76 -190.5q0 -53 -14.5 -106.5t-65.5 -161.5l-144 -305h-286l102 346q-63 31 -98 89t-35 138zM635 1278q0 119 76 190.5t194 71.5q119 0 195 -71.5t76 -190.5q0 -53 -14.5 -106.5t-65.5 -161.5l-144 -305h-286l102 346 q-63 31 -98 89t-35 138z" />
<glyph unicode="&#x201e;" horiz-adv-x="1216" d="M41 246q0 119 76 190.5t194 71.5q119 0 195 -71.5t76 -190.5q0 -53 -14.5 -106.5t-65.5 -162.5l-144 -305h-286l102 346q-63 31 -98 89.5t-35 138.5zM635 246q0 119 76 190.5t194 71.5q119 0 195 -71.5t76 -190.5q0 -53 -14.5 -106.5t-65.5 -162.5l-144 -305h-286 l102 346q-63 31 -98 89.5t-35 138.5z" />
<glyph unicode="&#x2022;" horiz-adv-x="839" d="M82 584q0 96 44 173t121 120t171 43t172 -43t123 -120t45 -173t-45 -174t-123 -122t-172 -44q-92 0 -170 44t-122 121.5t-44 174.5z" />
<glyph unicode="&#x2026;" horiz-adv-x="1888" d="M41 246q0 117 77 189.5t193 72.5q117 0 194 -73t77 -189q0 -117 -77 -191.5t-194 -74.5q-116 0 -193 74.5t-77 191.5zM674 246q0 117 77 189.5t193 72.5q117 0 194 -73t77 -189q0 -117 -77 -191.5t-194 -74.5q-116 0 -193 74.5t-77 191.5zM1307 246q0 117 77 189.5 t193 72.5q117 0 194 -73t77 -189q0 -117 -77 -191.5t-194 -74.5q-116 0 -193 74.5t-77 191.5z" />
<glyph unicode="&#x202f;" horiz-adv-x="414" />
<glyph unicode="&#x2039;" horiz-adv-x="774" d="M51 561l283 410h409l-272 -410l272 -409h-409z" />
<glyph unicode="&#x203a;" horiz-adv-x="774" d="M31 152l272 409l-272 410h409l283 -410l-283 -409h-409z" />
<glyph unicode="&#x205f;" horiz-adv-x="517" />
<glyph unicode="&#x20ac;" horiz-adv-x="1710" d="M61 461v229h185v27v26h-185v230h226q80 225 282.5 359t474.5 134q209 0 373 -73.5t271 -212.5l-306 -273q-133 168 -313 168q-156 0 -248 -102h350v-230h-438v-26v-27h438v-229h-350q92 -102 248 -103q180 0 313 168l306 -272q-106 -139 -270.5 -213t-373.5 -74 q-272 0 -474.5 134.5t-282.5 359.5h-226z" />
<glyph unicode="&#x2122;" horiz-adv-x="2185" d="M8 1200v234h858v-234h-266v-616h-328v616h-264zM952 584v850h269l292 -439l285 439h266l4 -850h-296l-5 362l-186 -289h-143l-189 277v-350h-297z" />
<glyph unicode="&#x25fc;" horiz-adv-x="1116" d="M0 0v1116h1116v-1116h-1116z" />
</font>
</defs>
</svg>
